<?xml version="1.0" standalone="no"?>
<!DOCTYPE svg PUBLIC "-//W3C//DTD SVG 1.1//EN" "http://www.w3.org/Graphics/SVG/1.1/DTD/svg11.dtd">
<svg xmlns="http://www.w3.org/2000/svg">
<metadata>Generated by Fontastic.me</metadata>
<defs>
<font id="ewd-toggle-icon" horiz-adv-x="512">
<font-face font-family="ewd-toggle-icon" units-per-em="512" ascent="480" descent="-32"/>
<missing-glyph horiz-adv-x="512" />

<glyph glyph-name="ewd-ufaq-fonticon-01" unicode="&#97;" d="M224 468l64 0 0-424-64 0z m-180-180l424 0 0-64-424 0z"/>
<glyph glyph-name="ewd-ufaq-fonticon-02" unicode="&#65;" d="M44 288l424 0 0-64-424 0z"/>
<glyph glyph-name="ewd-ufaq-fonticon-03" unicode="&#98;" d="M256 219l-164 164-45-45 209-209 209 209-45 45-164-164"/>
<glyph glyph-name="ewd-ufaq-fonticon-04" unicode="&#66;" d="M256 293l-164-164-45 45 209 209 209-209-45-45-164 164"/>
<glyph glyph-name="ewd-ufaq-fonticon-05" unicode="&#99;" d="M256 151l0 0 164 164 0-90-164-163-164 164 0 89z m0 46l-164 164 0 89 164-164 0 0 164 164 0-89z"/>
<glyph glyph-name="ewd-ufaq-fonticon-06" unicode="&#67;" d="M256 361l0 0 164-164 0 90-164 163-164-164 0-89z m0-46l-164-164 0-89 164 164 0 0 164-164 0 89z"/>
<glyph glyph-name="ewd-ufaq-fonticon-07" unicode="&#100;" d="M34 400l222-288 222 288z"/>
<glyph glyph-name="ewd-ufaq-fonticon-08" unicode="&#68;" d="M34 112l222 288 222-288z"/>
<glyph glyph-name="ewd-ufaq-fonticon-09" unicode="&#101;" d="M34 448l222-384 222 384-222-192z"/>
<glyph glyph-name="ewd-ufaq-fonticon-10" unicode="&#69;" d="M34 64l222 384 222-384-222 192z"/>
<glyph glyph-name="ewd-ufaq-fonticon-11" unicode="&#102;" d="M256 473c-120 0-217-97-217-217 0-120 97-217 217-217 120 0 217 97 217 217 0 120-97 217-217 217z m0-402c-102 0-185 83-185 185 0 102 83 185 185 185 102 0 185-83 185-185 0-102-83-185-185-185z"/>
<glyph glyph-name="ewd-ufaq-fonticon-12" unicode="&#70;" d="M256 473c-120 0-217-97-217-217 0-120 97-217 217-217 120 0 217 97 217 217 0 120-97 217-217 217z m0-402c-102 0-185 83-185 185 0 102 83 185 185 185 102 0 185-83 185-185 0-102-83-185-185-185z m152 185c0-84-68-152-152-152-84 0-152 68-152 152 0 84 68 152 152 152 84 0 152-68 152-152z"/>
<glyph glyph-name="ewd-ufaq-fonticon-13" unicode="&#103;" d="M256 473c-120 0-217-97-217-217 0-120 97-217 217-217 120 0 217 97 217 217 0 120-97 217-217 217z m0-402c-102 0-185 83-185 185 0 102 83 185 185 185 102 0 185-83 185-185 0-102-83-185-185-185z"/>
<glyph glyph-name="ewd-ufaq-fonticon-14" unicode="&#71;" d="M256 473c-120 0-217-97-217-217 0-120 97-217 217-217 120 0 217 97 217 217 0 120-97 217-217 217z"/>
<glyph glyph-name="ewd-ufaq-fonticon-15" unicode="&#104;" d="M60 452l0-392 392 0 0 392z m362-362l-332 0 0 332 332 0z"/>
<glyph glyph-name="ewd-ufaq-fonticon-16" unicode="&#72;" d="M60 452l0-392 392 0 0 392z m362-362l-332 0 0 332 332 0z m-301 301l270 0 0-270-270 0z"/>
<glyph glyph-name="ewd-ufaq-fonticon-17" unicode="&#105;" d="M60 452l0-392 392 0 0 392z m362-362l-332 0 0 332 332 0z"/>
<glyph glyph-name="ewd-ufaq-fonticon-18" unicode="&#73;" d="M60 452l0-392 392 0 0 392z"/>
<glyph glyph-name="ewd-ufaq-fonticon-19" unicode="&#106;" d="M53 256l203-203 203 203-203 203z m375 0l-172-172-172 172 172 172z"/>
<glyph glyph-name="ewd-ufaq-fonticon-20" unicode="&#74;" d="M53 256l203-203 203 203-203 203z m375 0l-172-172-172 172 172 172z m-311 0l139 139 139-139-139-139z"/>
<glyph glyph-name="ewd-ufaq-fonticon-21" unicode="&#107;" d="M53 256l203-203 203 203-203 203z m375 0l-172-172-172 172 172 172z"/>
<glyph glyph-name="ewd-ufaq-fonticon-22" unicode="&#75;" d="M53 256l203-203 203 203-203 203z"/>
<glyph glyph-name="ewd-ufaq-fonticon-23" unicode="&#108;" d="M373 356l-234 0c-55 0-100-45-100-100 0-55 45-100 100-100l234 0c55 0 100 45 100 100 0 55-45 100-100 100z m-224-174c-41 0-74 33-74 74 0 41 33 74 74 74 41 0 74-33 74-74 0-41-33-74-74-74z"/>
<glyph glyph-name="ewd-ufaq-fonticon-24" unicode="&#76;" d="M39 256c0-55 45-100 100-100l234 0c55 0 100 45 100 100 0 55-45 100-100 100l-234 0c-55 0-100-45-100-100z m250 0c0 41 33 74 74 74 41 0 74-33 74-74 0-41-33-74-74-74-41 0-74 33-74 74z"/>
<glyph glyph-name="ewd-ufaq-fonticon-25" unicode="&#109;" d="M411 186c30 26 48 50 48 50l-39 0 0 0c0 0-73-98-164-98-91 0-164 98-164 98l0 0-39 0c0 0 19-25 50-52l-39-52c-4-4-3-11 2-15 4-3 11-2 14 2l39 51c17-13 36-26 57-36l-21-66c-2-5 1-11 7-13 5-2 11 1 13 7l21 64c16-6 34-10 52-11l0-73c0-6 5-10 10-10 6 0 11 4 11 10l0 74c18 1 35 6 52 12l22-61c2-5 8-8 14-6 5 2 8 8 6 13l-23 63c21 10 39 22 55 35l43-52c3-5 10-5 15-2 4 4 5 11 1 15z"/>
<glyph glyph-name="ewd-ufaq-fonticon-26" unicode="&#77;" d="M411 264l43 52c4 5 3 12-1 15-5 4-12 3-15-1l-43-52c-16 13-34 25-55 35l23 63c2 5-1 11-6 13-6 2-12-1-14-6l-22-61c-17 6-34 10-52 12l0 74c0 5-5 10-11 10-5 0-10-5-10-10l0-74c-18-1-36-5-52-10l-21 64c-2 5-8 9-13 7-6-2-9-8-7-14l21-66c-21-10-40-22-57-35l-39 50c-3 5-10 6-14 2-5-3-6-10-2-14l39-52c-31-27-50-52-50-52 0 0 91-120 203-120 112 0 203 120 203 120 0 0-18 24-48 50z m-319-50c0 0 73 98 164 98 31 0 60-12 85-27-11 5-22 8-34 8-44 0-79-35-79-79 0-43 35-79 79-79 12 0 23 3 33 8-24-15-53-26-84-26-91 0-164 97-164 97z m268-58c16 14 26 35 26 58 0 23-10 44-26 59 37-28 60-59 60-59 0 0-23-31-60-58z"/>
<glyph glyph-name="ewd-ufaq-fonticon-27" unicode="&#110;" d="M339 171c-58 0-106 47-106 106 0 54 41 98 93 105-18 8-38 13-59 13-77 0-139-62-139-139 0-77 62-139 139-139 49 0 92 25 117 64-14-7-29-10-45-10z"/>
<glyph glyph-name="ewd-ufaq-fonticon-28" unicode="&#78;" d="M358 256c0-57-45-102-102-102-57 0-102 45-102 102 0 57 45 102 102 102 57 0 102-45 102-102z m-91 133c0-5-5-10-11-10-6 0-11 5-11 10l0 61c0 6 5 11 11 11 6 0 11-5 11-11z m0-327c0-6-5-11-11-11-6 0-11 5-11 11l0 61c0 5 5 10 11 10 6 0 11-5 11-10z m122 183c-5 0-10 5-10 11 0 6 5 11 10 11l61 0c6 0 11-5 11-11 0-6-5-11-11-11z m-327 0c-6 0-11 5-11 11 0 6 5 11 11 11l61 0c5 0 10-5 10-11 0-6-5-11-10-11z m296 98c-4-4-11-4-15 0-4 4-4 11 0 15l43 43c4 4 11 4 15 0 4-4 4-11 0-15z m-232-232c-4-4-11-4-15 0-4 4-4 11 0 15l43 43c4 4 11 4 15 0 4-4 4-11 0-15z m28 232c4-4 11-4 15 0 4 4 4 11 0 15l-43 43c-4 4-11 4-15 0-4-4-4-11 0-15z m232-232c4-4 11-4 15 0 4 4 4 11 0 15l-43 43c-4 4-11 4-15 0-4-4-4-11 0-15z"/>
<glyph glyph-name="ewd-ufaq-fonticon-29" unicode="&#111;" d="M375 308l-34 0 0 16c0 46-38 84-85 84-47 0-85-38-85-84l0-16-34 0c-14 0-26-10-26-23l0-158c0-13 12-23 26-23l238 0c14 0 26 10 26 23l0 158c0 13-12 23-26 23z m-170 15c0 28 23 51 51 51 28 0 51-23 51-51l0-15-102 0z"/>
<glyph glyph-name="ewd-ufaq-fonticon-30" unicode="&#79;" d="M375 308l-34 0 0 36c0 47-38 85-85 85-45 0-83-36-85-81 0 0 0-19 20-19 16 0 14 19 14 19 3 26 24 46 51 46 28 0 51-23 51-51l0-35-170 0c-14 0-26-10-26-23l0-158c0-13 12-23 26-23l238 0c14 0 26 10 26 23l0 158c0 13-12 23-26 23z"/>
</font>
</defs>
</svg>
